and paste it in your website http://deer5001.blogspot.com/ Deer 5001: February 2019

2019-02-28

Repost links Ausfile Premium Account By Request

Bryan Adams - The Best Video Collection - pro-shot


Thanks To Original Uploader For File Produce The DVD
DVD Authoring & DVD Cover By Deer 5001
*****/*****
Bryan Adams
The Best Video Collection

Setlist:

01 - All I Want Is You                         
02 - Summer Of '69
03 - (Everything I do) I do it for you
04 - Diana
05 - Let's Make A Night To Remember
06 - Somebody                     
07 - All For Love
08 - Can't Stop This Thing We Started
09 - Heaven
10 - Open Road
11 - Cuts Like A Knife
12 - Run To You
13 - Have You Ever Loved A Woman
14 - Kids Wanna Rock
15 - Inside Out
16 - Nowhere Fast
17 - Please Forgive Me
18 - When You're Gone
19 - Thought I'd Died And Gone To Heaven
20 - This Time
21 - The Only Thing That L
22 - Do I Have To Say The Words
23 - Heat Of The Night
24 - Flying
25 - 18 Til I Diie
26 - Heaven (version 2)
27 - Room Service
28 - Mysterious Ways
29 - On A Day Like Today
30 - You Belong To Me
31 - All for love
32 - Brand New Day
33 - Here I Am
34 - Somebody (version 2)
35 - Don't Even Try
36 - This Side Of Paradise
37 - Cloud Number
38 - Star
39 - Don't Give Up
40 - (Everything I do) I do it for you (Live)
41 - Can't Stop This Thing We Started (Live)
42 - Hearts On Fire (Live)
43 - I Fought The Law (Live)
44 - Run To You (Live)
45 - Straight From The Heart
46 - Summer Of '69 (Live)
47 - It's Only Love (Live)

Total Time: 03:19:22

DVD Info:
DVD Size: DVD9
Menu: Yes
Chapters (SongSelect): Yes
SoundMenu: Yes
AudioSetup: Yes
DVD Produce From HD: Yes (Excellence Video & Audio)
Video: NTSC/16:9 Widescreen
Audio1: AC3/448 Kbps/5.1 Ch
Audio2: AC3/448 Kbps/2 Ch
Audio3: LPCM/1536 Kbps/2 Ch

DVD Cover Included
links Download From AusFile
BryanAdams_BestVideoCollection.part1.rar - 1.2 GB
BryanAdams_BestVideoCollection.part2.rar - 1.2 GB
BryanAdams_BestVideoCollection.part3.rar - 1.2 GB
BryanAdams_BestVideoCollection.part4.rar - 1.2 GB
BryanAdams_BestVideoCollection.part5.rar - 1.2 GB
BryanAdams_BestVideoCollection.part6.rar - 854.7 MB


Bryan Adams - 2014-07-23 - Live at Elgin Theatre, Toronto - HDTV > DVD


Thanks To Original Uploader For File Produce The DVD
DVD Authoring & DVD Cover By Deer 5001
*****/*****
Bryan Adams
Live at Elgin Theatre
Toronto
2014-07-23

Setlist:

01 - Run To You
02 - Here I Am
03 - Any Time At All
04 - God Only Knows
05 - The Only Thing That Looks Good On Me Is You
06 - (Everything I Do) I Do It For You
07 - Cuts Like A Knife
08 - She Knows Me 
09 - When You're Gone
10 - Summer Of '69
11 - 18 Til I Die
12 - I Thought I'd Seen Everything
13 - Heaven
14 - It's Only Love
15 - You've Been A Friend To Me
16 - C'mon Everybody!
17 - Straight From The Heart
18 - All For Love

Total Time : 01:13:10

DVD Info
Menu: Yes
Chapters (SongSelect): Yes
SoundMenu: Yes
AudioSetup: Yes
DVD Produce From HD: Yes (Excellence Video & Audio)
Video: NTSC/16:9 Widescreen
Audio1: AC3/448 Kbps/5.1 Ch
Audio2: AC3/448 Kbps/2 Ch
Audio3: LPCM/1536 Kbps/2 Ch

DVD Cover Included
links Download From AusFile
BryanAdams_2014_ElginTheatre_DVD.part1.rar - 1.2 GB
BryanAdams_2014_ElginTheatre_DVD.part2.rar - 1.2 GB
BryanAdams_2014_ElginTheatre_DVD.part3.rar - 1.2 GB
BryanAdams_2014_ElginTheatre_DVD.part4.rar - 725.6 MB


Blues Pills - 2018 - Pol'and'Rock Festival - HD-Webcast > DVD


Blues Pills
Kostrzyn, Poland
Pol'and'Rock Festival
2018-08-04

Setlist:

01 - Lady in Gold
02 - Little Boy Preacher
03 - Black Smoke
04 - Bliss
05 - Little Sun
06 - Elements and Things
07 - You Gotta Try
08 - Astralplane 
09 - High Class Woman 
10 - Somebody to Love
11 - Devil Man

Total Time: 01:06:51

DVD Info:
Menu: Yes
Chapters (SongSelect): Yes
SoundMenu: Yes
AudioSetup: Yes
DVD Produce From HD: Yes (Excellence Video & Audio)
Video: NTSC/16:9 Widescreen
Audio1: AC3/448 Kbps/5.1 Ch
Audio2: AC3/448 Kbps/2 Ch
Audio3: LPCM/1536 Kbps/2 Ch

DVD Cover Included
links Download From Ausfile
BluesPills_2018_PolandRock.part1.rar - 1.2 GB
BluesPills_2018_PolandRock.part2.rar - 1.2 GB
BluesPills_2018_PolandRock.part3.rar - 1.2 GB
BluesPills_2018_PolandRock.part4.rar - 730.0 MB


2019-02-27

Bon Jovi - 2005 - Have a nice day - Live From Amsterdam - pro-shot


DVD Authoring & DVD Cover By Deer 5001

*****/*****

Bon Jovi
Have a nice day
Live From Amsterdam
2005

Setlist:

01 - Intro
02 - Last man standing
03 - You give love a bad name
04 - Living on a prayer
05 - Born to be my baby
06 - Have a nice day
07 - It's my life
08 - Radio saved my life tonight
09 - Someday I'll be saturaday night
10 - Wanted dead or alive
11 - Who says you can't go home
12 - I'll sleep when I'm dead
13 - Raise your hand
14 - Keep the faith
15 - Bad medicine
16 - Band intoduction

Total Time: 01:37:39

DVD Info:
Menu: Yes
Chapters (SongSelect): Yes
SoundMenu: Yes
Video: NTSC/16:9 Widescreen
Audio: LPCM/1536 Kbps/2 Ch

DVD Cover Included
links Download From AusFile
BonJovi_2005_Amsterdam.part1.rar - 1.2 GB
BonJovi_2005_Amsterdam.part2.rar - 1.2 GB
BonJovi_2005_Amsterdam.part3.rar - 1.2 GB
BonJovi_2005_Amsterdam.part4.rar - 487.0 MB


AC/DC - 2003 - SARS Concert Toronto - pro-shot


DVD Authoring & DVD Cover By Deer 5001

*****/*****

AC/DC - SARS Concert Toronto 2003

Setlist:

01 - Hell Ain't A Bad Place To Be
02 - Back In Black
03 - Dirty Deeds Done Dirt Cheap
04 - Thunderstruck
05 - If You Want Blood (You've Got It)
06 - Hells Bells
07 - The Jack
08 - T.N.T.
09 - You Shook Me All Night Long
10 - Whole Lotta Rosie
11 - Let There Be Rock
12 - Highway To Hell

Total Time: 01:10:54

DVD Info:
Menu: Yes
Chapters (SongSelect): Yes
SoundMenu: Yes
DVD Media: pro-shot: Yes
Video: NTSC/16:9 Widescreen
Audio: LPCM/1536 Kbps/2 Ch

DVD Cover Included
links Downlaod From Ausfile Premium Account
ACDC_2003_Toronto_DVD.part1.rar - 1.2 GB
ACDC_2003_Toronto_DVD.part2.rar - 1.2 GB
ACDC_2003_Toronto_DVD.part3.rar - 1.2 GB
ACDC_2003_Toronto_DVD.part4.rar - 136.8 MB


Ariana Grande - 2015 - Summer Sonic - HDTV > Blu-ray & DVD



Blu-ray, DVD Authoring & Blu-ray, DVD Cover By Deer 5001

*****/*****

Ariana Grande - 2015 - Summer Sonic

Setlist:

01 - Bang Bang
02 - Be My Baby
03 - Baby I
04 - Lovin' It/Love Me Harder
05 - Break Free
06 - Problem

Live at NBA All-Star Game Half-Time Show - 2015

07 - Problem
08 -Love Me Harder
09 - The Way
10 - One Last Time
11 - Bang Bang (feat. Nicki Minaj)
12 - Break Free

DVD Info
Menu: Yes
Chapters (SongSelect): Yes
SoundMenu: Yes
AudioSetup: Yes
DVD Produce From HD: Yes (Excellence Video & Audio)
Video: NTSC/16:9 Widescreen
Audio1: AC3/448 Kbps/5.1 Ch
Audio2: AC3/448 Kbps/2 Ch
Audio3: LPCM/1536 Kbps/2 Ch

DVD All Region
I Accept Paypal
DVD Included Art Work, Art Work on Disc, DVD Box

Blu-ray Info:
Menu: Yes
Chapters (SongSelect): Yes
SoundMenu: Yes
DVD Produce From HD: Yes (Excellence Video & Audio)
      Format : BDAV
      Format/Info : Blu-ray Video
      File size : 11.0 GiB
      Duration : 37 min 30 s
      Overall bit rate mode : Variable
      Overall bit rate : 42.0 Mb/s
      Maximum Overall bit rate : 48.0 Mb/s
   Video #4113
      ID : 4113 (0x1011)
      Menu ID : 1 (0x1)
      Format : MPEG Video
      Format version : Version 2
      Format profile : Main@High
      Format settings : CustomMatrix / BVOP
      Format settings, BVOP : Yes
      Format settings, Matrix : Custom
      Format settings, GOP : Variable
      Format settings, picture structure : Frame
      Codec ID : 2
      Duration : 37 min 29 s
      Bit rate mode : Constant
      Bit rate : 38.5 Mb/s
      Width : 1 920 pixels
      Height : 1 080 pixels
      Display aspect ratio : 16:9
      Frame rate : 29.970 (30000/1001) FPS
      Standard : Component
      Color space : YUV
      Chroma subsampling : 4:2:0
      Bit depth : 8 bits
      Scan type : Interlaced
      Scan order : Top Field First
      Compression mode : Lossy
      Bits/(Pixel*Frame) : 0.619
      Time code of first frame : 00:00:00:00
      Time code source : Group of pictures header
      GOP, Open/Closed : Closed
      Stream size : 10.2 GiB (92%)
      Writing library : TMPGEnc Video Mastering Works 5 Version. 5.0.6.38
      Color primaries : BT.709
      Transfer characteristics : BT.709
      Matrix coefficients : BT.709
   Audio #4352
      ID : 4352 (0x1100)
      Menu ID : 1 (0x1)
      Format : PCM
      Format settings : Big / Signed
      Muxing mode : Blu-ray
      Codec ID : 128
      Duration : 37 min 29 s
      Bit rate mode : Constant
      Bit rate : 1 536 kb/s
      Channel(s) : 2 channels
      Channel positions : Front: L R
      Sampling rate : 48.0 kHz
      Bit depth : 16 bits
      Stream size : 412 MiB (4%)

Bluray & DVD Cover Included
links Download From AusFile
DVD
ArianaGrande_2015_SummerSonic_DVD.rar - 1.8 GB
Blu-ray
ArianaGrande_2015_SummerSonic_BD.part1.rar - 2.0 GB
ArianaGrande_2015_SummerSonic_BD.part2.rar - 2.0 GB
ArianaGrande_2015_SummerSonic_BD.part3.rar - 2.0 GB
ArianaGrande_2015_SummerSonic_BD.part4.rar - 2.0 GB
ArianaGrande_2015_SummerSonic_BD.part5.rar - 2.0 GB
ArianaGrande_2015_SummerSonic_BD.part6.rar - 1.5 GB

The Doobie Brothers & Luke Bryan - 2011 - CMT Crossroads - HDTV > Blu-ray


Thanks To Original Uploader For File Produce Blu-ray
Blu-ray Authoring & Blu-ray Cover By Deer 5001

*****/*****

The Doobie Brothers & Luke Bryan
2011
CMT Crossroads

Setlist:

01 - China Grove
02 - Interview 1
03 - Rain is a Good Thing
04 - Interview 2
05 - Contry Girl
06 - Interview 3
07 - Black Water
08 - Interview 4
09 - Semeone Else Calling You Bany
10 - Interview 5
11 - World Gone Crazy
12 - Interview 6
13 - Long Train Rannin
14 - Credits

Total Time: 00:39:50

Blu-ray Info:
Menu: Yes
Chapters (SongSelect): Yes
SoundMenu: Yes
DVD Produce From HD: Yes (Excellence Video & Audio)
      Format : BDAV
      Format/Info : Blu-ray Video
      File size : 11.7 GiB
      Duration : 39 min 51 s
      Overall bit rate mode : Variable
      Overall bit rate : 42.0 Mb/s
      Maximum Overall bit rate : 48.0 Mb/s
   Video #4113
      ID : 4113 (0x1011)
      Menu ID : 1 (0x1)
      Format : MPEG Video
      Format version : Version 2
      Format profile : Main@High
      Format settings : CustomMatrix / BVOP
      Format settings, BVOP : Yes
      Format settings, Matrix : Custom
      Format settings, GOP : Variable
      Format settings, picture structure : Frame
      Codec ID : 2
      Duration : 39 min 50 s
      Bit rate mode : Constant
      Bit rate : 38.5 Mb/s
      Width : 1 920 pixels
      Height : 1 080 pixels
      Display aspect ratio : 16:9
      Frame rate : 29.970 (30000/1001) FPS
      Standard : Component
      Color space : YUV
      Chroma subsampling : 4:2:0
      Bit depth : 8 bits
      Scan type : Interlaced
      Scan order : Top Field First
      Compression mode : Lossy
      Bits/(Pixel*Frame) : 0.619
      Time code of first frame : 00:00:00:00
      Time code source : Group of pictures header
      GOP, Open/Closed : Closed
      Stream size : 10.8 GiB (92%)
      Writing library : TMPGEnc Video Mastering Works 5 Version. 5.0.6.38
      Color primaries : BT.709
      Transfer characteristics : BT.709
      Matrix coefficients : BT.709
   Audio #4352
      ID : 4352 (0x1100)
      Menu ID : 1 (0x1)
      Format : PCM
      Format settings : Big / Signed
      Muxing mode : Blu-ray
      Codec ID : 128
      Duration : 39 min 50 s
      Bit rate mode : Constant
      Bit rate : 1 536 kb/s
      Channel(s) : 2 channels
      Channel positions : Front: L R
      Sampling rate : 48.0 kHz
      Bit depth : 16 bits
      Stream size : 438 MiB (4%)

Blu-ray Cover Included
links Download From AusFile Premium Account
TDB_2011_CMT_BD.part01.rar - 1.2 GB
TDB_2011_CMT_BD.part02.rar - 1.2 GB
TDB_2011_CMT_BD.part03.rar - 1.2 GB
TDB_2011_CMT_BD.part04.rar - 1.2 GB
TDB_2011_CMT_BD.part05.rar - 1.2 GB
TDB_2011_CMT_BD.part06.rar - 1.2 GB
TDB_2011_CMT_BD.part07.rar - 1.2 GB
TDB_2011_CMT_BD.part08.rar - 1.2 GB
TDB_2011_CMT_BD.part09.rar - 1.2 GB
TDB_2011_CMT_BD.part10.rar - 1.2 GB
TDB_2011_CMT_BD.part11.rar - 1.0 GB


2019-02-26

Wishbone Ash - 2019-01-29 - Live in Amager Bio, Copenhagen - HD-aud>DVD


WISHBONE ASH
Live in Amager Bio
Copenhagen
2019-01-29

Setlist:

01 - Real Guitars Have Wings
02 - Mountainside
03 - Deep Blues
04 - Come in From the Rain
05 - Front Page News
06 - Lifeline 
07 - The King Will Come
08 - Warrior 
09 - Throw Down the Sword 
10 - Leaf and Stream 
11 - Wings of Desire
12 - F.U.B.B. 
13 - Standing in the Rain 
14 - Jailbait
15 - Phoenix 
16 - Livin Proof
17 - Blowin' Free

Total Time: 01:54:29

DVD Info
Menu: Yes
Chapters (SongSelect): Yes
SoundMenu: Yes
AudioSetup: Yes
DVD Produce From HD-aud: Yes (Excellence Video & Audio)
Video: NTSC/16:9 Widescreen
Audio: AC3/448 Kbps/5.1 Ch

DVD Cover Included
links Free Dowload From
01 - Ausfile
WishboneAsh_2019_Copenhagen.part1.rar - 1.2 GB
WishboneAsh_2019_Copenhagen.part2.rar - 1.2 GB
WishboneAsh_2019_Copenhagen.part3.rar - 1.2 GB
WishboneAsh_2019_Copenhagen.part4.rar - 329.3 MB

02 - FileFactory Download Click here

2019-02-20

Foo Fighters - 2019-02-02 - Super Saturday Night - HD-webcast > Blu-ray & DVD



Thanks To Original Uploader For File Produce Blu-ray and DVD.
Blu-ray, DVD Authoring & Blu-ray, DVD Cover By Deer 5001

*****/*****

Foo Fighters
Super Saturday Night
Atlantic Station
Atlanta, Georgia
2019-02-02

Setlist:

01 - All My Life
02 - Learn to Fly
03 - The Pretender
04 - The Sky Is a Neighborhood
05 - Times Like These
06 - Drum Solo
07 - Sunday Rain
08 - My Hero
09 - These Days
10 - Walk
11 - La Dee Da (with Dave Koz)
12 - Guitar Solo with band introdction and a medley of “Another One Bites the Dust” / “Imagine” / “Jump” / “Blitzkrieg Bop” / “Day-Oh”
13 - Under Pressure (with Roger Taylor)
14 - Monkey Wrench
15 - Run
16 - War Pigs (with Zac Brown and Tom Morello)
17 - Mountain Song (with Perry Farrell, Zac Brown, and Tom Morello)
18 - Best of You
19 - Everlong
20 - Credits

Total Time: 02:07:14

DVD Info :
DVD Size: DVD9
Menu: Yes
Chapters (SongSelect): Yes
SoundMenu: Yes
AudioSetup: Yes
DVD Produce From HD: Yes (Excellence Video & Audio)
Video: NTSC/16:9 Widescreen
Audio1: AC3/448 Kbps/5.1 Ch
Audio2: AC3/448 Kbps/2 Ch
Audio3: LPCM/1536 Kbps/2 Ch

Blu-ray Info:
Menu: Yes
Chapters (SongSelect): Yes
SoundMenu: Yes
      Format : BDAV
      Format/Info : Blu-ray Video
      File size : 22.5 GiB
      Duration : 2 h 7 min
      Overall bit rate mode : Variable
      Overall bit rate : 25.3 Mb/s
      Maximum Overall bit rate : 48.0 Mb/s
   Video #4113
      ID : 4113 (0x1011)
      Menu ID : 1 (0x1)
      Format : MPEG Video
      Format version : Version 2
      Format profile : Main@High
      Format settings : CustomMatrix / BVOP
      Format settings, BVOP : Yes
      Format settings, Matrix : Custom
      Format settings, GOP : Variable
      Codec ID : 2
      Duration : 2 h 7 min
      Bit rate mode : Constant
      Bit rate : 22.7 Mb/s
      Maximum bit rate : 22.4 Mb/s
      Width : 1 280 pixels
      Height : 720 pixels
      Display aspect ratio : 16:9
      Frame rate : 59.940 (60000/1001) FPS
      Standard : Component
      Color space : YUV
      Chroma subsampling : 4:2:0
      Bit depth : 8 bits
      Scan type : Progressive
      Compression mode : Lossy
      Bits/(Pixel*Frame) : 0.412
      Time code of first frame : 00:00:00:00
      Time code source : Group of pictures header
      GOP, Open/Closed : Closed
      Stream size : 20.2 GiB (90%)
      Color primaries : BT.709
      Transfer characteristics : BT.709
      Matrix coefficients : BT.709
   Audio #4352
      ID : 4352 (0x1100)
      Menu ID : 1 (0x1)
      Format : PCM
      Format settings : Big / Signed
      Muxing mode : Blu-ray
      Codec ID : 128
      Duration : 2 h 7 min
      Bit rate mode : Constant
      Bit rate : 1 536 kb/s
      Channel(s) : 2 channels
      Channel positions : Front: L R
      Sampling rate : 48.0 kHz
      Bit depth : 16 bits
      Stream size : 1.37 GiB (6%)

Blu-ray, DVD Cover Included
links Download From AusFile
DVD
FF_20190202_SuperSaturdayNight_DVD.part1.rar - 1.2 GB
FF_20190202_SuperSaturdayNight_DVD.part2.rar - 1.2 GB
FF_20190202_SuperSaturdayNight_DVD.part3.rar - 1.2 GB
FF_20190202_SuperSaturdayNight_DVD.part4.rar - 1.2 GB
FF_20190202_SuperSaturdayNight_DVD.part5.rar - 1.2 GB
FF_20190202_SuperSaturdayNight_DVD.part6.rar - 284.4 MB

Blu-ray
FF_2019_SuperSaturdayNight_BD.part1.rar - 3.9 GB
FF_2019_SuperSaturdayNight_BD.part2.rar - 3.9 GB
FF_2019_SuperSaturdayNight_BD.part3.rar - 3.9 GB
FF_2019_SuperSaturdayNight_BD.part4.rar - 3.9 GB
FF_2019_SuperSaturdayNight_BD.part5.rar - 3.9 GB
FF_2019_SuperSaturdayNight_BD.part6.rar - 3.9 GB
FF_2019_SuperSaturdayNight_BD.part7.rar - 1.2 GB

2019-02-13

Muse - 2019-01-19 - iHeartRadio ALTer Ego - HD-Webcast > DVD & Blu-ray




Thanks To Original Uploader For File Produce Blu-ray & DVD
Blu-ray, DVD Authoring & Blu-ray, DVD Cover By Deer 5001
Visit To www.Deer5001RockConcert.Blogspot.com

*****/*****

Muse
iHeartRadio ALTer Ego
The Forum
Inglewood, California
2019-01-19

Setlist:

01 - Intro
02 - Pressure
03 - Psycho
04 - Uprising
05 - Madness
06 - Thought Contagion
07 - Supermassive Black Hole
08 - Time Is Running Out
09 - Starlight

Total Time: 00:39:37

DVD Info:
Menu: Yes
Chapters (SongSelect): Yes
SoundMenu: Yes
AudioSetup: Yes
DVD Produce From HD: Yes (Excellence Video & Audio)
Video: NTSC/16:9 Widescreen
Audio1: AC3/448 Kbps/5.1 Ch
Audio2: AC3/448 Kbps/2 Ch
Audio3: LPCM/1536 Kbps/2 Ch

Blu-ray Info:
Menu: Yes
Chapters (SongSelect): Yes
SoundMenu: Yes
DVD Produce From HD: Yes (Excellence Video & Audio)
      Format : BDAV
      Format/Info : Blu-ray Video
      File size : 11.6 GiB
      Duration : 39 min 39 s
      Overall bit rate mode : Variable
      Overall bit rate : 42.0 Mb/s
      Maximum Overall bit rate : 48.0 Mb/s
   Video #4113
      ID : 4113 (0x1011)
      Menu ID : 1 (0x1)
      Format : MPEG Video
      Format version : Version 2
      Format profile : Main@High
      Format settings : CustomMatrix / BVOP
      Format settings, BVOP : Yes
      Format settings, Matrix : Custom
      Format settings, GOP : M=3, N=13
      Format settings, picture structure : Frame
      Codec ID : 2
      Duration : 39 min 39 s
      Bit rate mode : Constant
      Bit rate : 38.5 Mb/s
      Width : 1 920 pixels
      Height : 1 080 pixels
      Display aspect ratio : 16:9
      Frame rate : 29.970 (30000/1001) FPS
      Standard : Component
      Color space : YUV
      Chroma subsampling : 4:2:0
      Bit depth : 8 bits
      Scan type : Interlaced
      Scan order : Top Field First
      Compression mode : Lossy
      Bits/(Pixel*Frame) : 0.619
      Time code of first frame : 00:00:00:00
      Time code source : Group of pictures header
      GOP, Open/Closed : Closed
      Stream size : 10.8 GiB (92%)
      Writing library : TMPGEnc Video Mastering Works 5 Version. 5.0.6.38
      Color primaries : BT.709
      Transfer characteristics : BT.709
      Matrix coefficients : BT.709
   Audio #4352
      ID : 4352 (0x1100)
      Menu ID : 1 (0x1)
      Format : PCM
      Format settings : Big / Signed
      Muxing mode : Blu-ray
      Codec ID : 128
      Duration : 39 min 39 s
      Bit rate mode : Constant
      Bit rate : 1 536 kb/s
      Channel(s) : 2 channels
      Channel positions : Front: L R
      Sampling rate : 48.0 kHz
      Bit depth : 16 bits
      Stream size : 436 MiB (4%)

Blu-ray & DVD Cover Included
links Download From AusFile
DVD
Muse_20190119_ iHeartRadio_DVD.part1.rar - 1.2 GB
Muse_20190119_ iHeartRadio_DVD.part2.rar - 1.2 GB
Muse_20190119_ iHeartRadio_DVD.part3.rar - 339.6 MB

Blu-ray
Muse_20190119_ iHeartRadio_BD.part01.rar - 1.2 GB
Muse_20190119_ iHeartRadio_BD.part02.rar - 1.2 GB
Muse_20190119_ iHeartRadio_BD.part03.rar - 1.2 GB
Muse_20190119_ iHeartRadio_BD.part04.rar - 1.2 GB
Muse_20190119_ iHeartRadio_BD.part05.rar - 1.2 GB
Muse_20190119_ iHeartRadio_BD.part06.rar - 1.2 GB
Muse_20190119_ iHeartRadio_BD.part07.rar - 1.2 GB
Muse_20190119_ iHeartRadio_BD.part08.rar - 1.2 GB
Muse_20190119_ iHeartRadio_BD.part09.rar - 1.2 GB
Muse_20190119_ iHeartRadio_BD.part10.rar - 285.0 MB

2019-02-11

Phil Collins - 1981 - 2004 - The Best Video Collection - HD-pro-shot > Blu-ray & DVD



Phil Collins
1981 - 2004
The Best Video Collection

Setlist:

01. A Groovy Kind Of Love
02. Against All Odds
03. Another Day In Paradise
04. Can't Stop Loving You
05. Can't Turn Back The Years
06. Dance Into The Light
07. Don't Lose My Number
08. Do You Remember
09. Easy Lover
10. Everyday
11. Hang In Long Enough
12. I Missed Again
13. It's In Your Eyes
14. I Wish It Wourld Rain Down
15. In The Air Tonight
16. Look Through My Eyes
17. No Way Out
18. One More Night
19. Seperate Lives
20. Something Happened On The Way To Heaven
21. Sussudio
22. Take Me Home
23. The Way You Look Tonight
24. Thru These Walls
25. Thunder And Lightning
26. True colors
27. Two Hearts
28. Wear My Hat
29. Who Said I Wourld
30. You Can't Hurry Love
31. You'll Be In My Heart

Total Time: 02:28:31

DVD Info:
Menu: Yes
Chapters (SongSelect): Yes
SoundMenu: Yes
Video: NTSC/16:9 Widescreen
Audio: LPCM/1536 Kbps/2 Ch

Blu-ray Info:
Menu: Yes
Chapters (SongSelect): Yes
SoundMenu: Yes
Video: MPEG2 Video 1280x720 59.94fps 18897kbps
Audio: PCM 48000Hz stereo 1536kbps

Blu-ray & DVD Cover Included
links Downlaod From AusFile
DVD
PhilCollins_1981_2004_BestVideo_DVD.part1.rar - 1.2 GB
PhilCollins_1981_2004_BestVideo_DVD.part2.rar - 1.2 GB
PhilCollins_1981_2004_BestVideo_DVD.part3.rar - 1.2 GB
PhilCollins_1981_2004_BestVideo_DVD.part4.rar - 1.2 GB
PhilCollins_1981_2004_BestVideo_DVD.part5.rar - 1.2 GB
PhilCollins_1981_2004_BestVideo_DVD.part6.rar - 1.2 GB
PhilCollins_1981_2004_BestVideo_DVD.part7.rar - 894.6 MB

Blu-ray
PhilCollins_1981_2004_BestVideo.part01.rar - 2.0 GB
PhilCollins_1981_2004_BestVideo.part02.rar - 2.0 GB
PhilCollins_1981_2004_BestVideo.part03.rar - 2.0 GB
PhilCollins_1981_2004_BestVideo.part04.rar - 2.0 GB
PhilCollins_1981_2004_BestVideo.part05.rar - 2.0 GB
PhilCollins_1981_2004_BestVideo.part06.rar - 2.0 GB
PhilCollins_1981_2004_BestVideo.part07.rar - 2.0 GB
PhilCollins_1981_2004_BestVideo.part08.rar - 2.0 GB
PhilCollins_1981_2004_BestVideo.part09.rar - 2.0 GB
PhilCollins_1981_2004_BestVideo.part10.rar - 2.0 GB
PhilCollins_1981_2004_BestVideo.part11.rar - 2.0 GB
PhilCollins_1981_2004_BestVideo.part12.rar - 2.0 GB
PhilCollins_1981_2004_BestVideo.part13.rar - 603.1 MB

Doro - 2018-08-03 - Wacken - HD-Webcast > Blu-ray


Thanks To Original Uploader For File Produce Blu-ray
Blu-ray Authoring & Blu-ray Cover By Deer 5001

*****/*****

Doro
2018-08-03
Wacken, Germany
Schleswig-Holstein
Wacken Open Air

Setlist:

01 - Intro
02 - I Rule the Ruins (Warlock cover)
03 - Burning the Witches (Warlock cover)
04 - Raise Your Fist in the Air
05 - The Ballroom Blitz (The Sweet cover) (with Andy Scott & Peter Lincoln)
06 - East Meets West (Warlock cover) (with Tommy Bolan on guitar)
07 - Fur Immer (Warlock cover) (with Tommy Bolan on guitar)
08 - Earthshaker Rock (Warlock cover)
09 - If I Can't Have You - No One Will (with Johan Hegg)
10 - A Dream That Cannot Be (Amon Amarth cover) (with Johan Hegg)
11 - Hellbound (Warlock cover)
12 - Drum Solo (Johnny Dee)
13 - All for Metal (with Tommy Golan on guitar)
14 - We Are the Metalheads - (Skyline cover)(with Tommy Bolan on guitar)
15 - All We Are (Warlock cover)(with Tommy Bolan on guitar, Johan Hegg, Andy Scott & Peter Lincoln)
16 - Breaking the Law (Judas Priest cover)(with Jeff Waters)

Total Time: 01:29:54

Blu-ray Info:
Menu: Yes
Chapters (SongSelect): Yes
SoundMenu: Yes
DVD Produce From HD: Yes (Excellence Video & Audio)
Video: MPEG2 Video 1920x1080 29.97fps 25000kbps
Audio: PCM 48000Hz stereo 1536kbps

Blu-ray Cover Included
links Download From AusFile
Doro_20180803_Wacken_BD.part01.rar - 2.0 GB
Doro_20180803_Wacken_BD.part02.rar - 2.0 GB
Doro_20180803_Wacken_BD.part03.rar - 2.0 GB
Doro_20180803_Wacken_BD.part04.rar - 2.0 GB
Doro_20180803_Wacken_BD.part05.rar - 2.0 GB
Doro_20180803_Wacken_BD.part06.rar - 2.0 GB
Doro_20180803_Wacken_BD.part07.rar - 2.0 GB
Doro_20180803_Wacken_BD.part08.rar - 2.0 GB
Doro_20180803_Wacken_BD.part09.rar - 2.0 GB
Doro_20180803_Wacken_BD.part10.rar - 1.2 GB

2019-02-09

Robert Plant - 1993 - Live At The Montreux Jazz Festival


Robert Plant - 1993 - Live At The Montreux Jazz Festival

Setlist:

Live
1 Ramble On
2 Calling To You
3 I Believe
4 Blue Bird
5 29 Palms
6 What Is & What Should Never Be
7 Whole Lotta Love
8 You Shook Me

The Videos
1 Heaven Knows
2 Big Log
3 Little By Little
4 In The Mood
5 Tall Cool One
6 Hurting King
7 Nirvana

PAL/4:3
AC3/384 Kbps/6 Ch

DVD Cover Included
links Free Downlaod From
01 - KatFile
RobertPlant_1993_Montreaux.part1.rar - 1.2 GB
RobertPlant_1993_Montreaux.part2.rar - 1.2 GB
RobertPlant_1993_Montreaux.part3.rar - 1.2 GB
RobertPlant_1993_Montreaux.part4.rar - 844.8 MB

02 - AusFile
RobertPlant_1993_Montreaux.part1.rar - 1.2 GB
RobertPlant_1993_Montreaux.part2.rar - 1.2 GB
RobertPlant_1993_Montreaux.part3.rar - 1.2 GB
RobertPlant_1993_Montreaux.part4.rar - 844.8 MB

03 - FileFactory Download Click here

2019-02-05

KISS - 2019-01-31 - Rogers Arena, Vancouver - HD-aud > DVD


Thanks To "Front Row Monster" From YouTube For File Produce The DVD
and Thanks To All Members For Requests
DVD Authoring & DVD Cover By Deer 5001

*****/*****

KISS
Rogers Arena
Vancouver, BC
Canada
Tour: End of the Road
2019-01-31

Setlist:

01 - Detroit Rock City
02 - Shout It Out Loud
03 - Deuce
04 - Say Yeah
05 - Heaven's on Fire
06 - War Machine
07 - Lick It Up
(with 'Won’t Get Fooled Again'… more )
08 - 100,000 Years
(with drum solo)
09 - God of Thunder
10 - Cold Gin
(with guitar solo)
11 - Psycho Circus
12 - I Love It Loud
13 - Hide Your Heart
14 - Let Me Go, Rock 'N' Roll
15 - Love Gun
(Paul on stage over crowd)
16 - I Was Made for Lovin' You
(Paul on stage over crowd)
17 - Black Diamond 1.32.46.01
Encore:
18 - Beth
(Eric Singer on piano)
19 - Do You Love Me
20 - Rock and Roll All Nite

Total Time: 01:57:55

DVD Info:
Menu: Yes
Chapters (SongSelect): Yes
SoundMenu: Yes
DVD Produce From HD: Yes (Excellence Video & Audio)
Video: NTSC/16:9 Widescreen
Audio: AC3/448 Kbps/5.1 Ch

DVD Cover Included
links Download From AusFile
Kiss_20190131_RogersArena.part1.rar - 1.2 GB
Kiss_20190131_RogersArena.part2.rar - 1.2 GB
Kiss_20190131_RogersArena.part3.rar - 1.2 GB
Kiss_20190131_RogersArena.part4.rar - 429.2 MB

Metallica - 2019-01-18 - Live at BOK Center, Tulsa - HD-aud > Blu-ray & DVD



Thanks To "Will Weems" From YouTube For File Produce Blu-ray & DVD
Blu-ray, DVD Authoring & Blu-ray, DVD Cover By Deer 5001

*****/*****

Metallica
Live at BOK Center
Tulsa, OK, USA
2019-01-18

Setlist:

01 - Hardwired
02 - Atlas, Rise!
03 - Seek & Destroy
04 - Holier Than Thou
05 - The Unforgiven
06 - Now That We’re Dead
07 - Creeping Death
08 - For Whom the Bell Tolls
09 - Halo on Fire
10 - Kirk and Rob Doodle
11 - Head Injury
12 - The Memory Remains
13 - Moth Into Flame
14 - Sad But True
15 - One
16 - Master of Puppets
17 - Blackened
18 - Nothing Else Matters
19 - Enter Sandman

Total Time: 02:23:00

DVD Info:
Menu: Yes
Chapters (SongSelect): Yes
SoundMenu: Yes
DVD Produce From HD: Yes (Excellence Video & Audio)
Video: NTSC/16:9 Widescreen
Audio: LPCM/1536 Kbps/2 Ch

Blu-ray Info:
Menu: Yes
Chapters (SongSelect): Yes
SoundMenu: Yes
DVD Produce From HD: Yes (Excellence Video & Audio)
      Format : BDAV
      Format/Info : Blu-ray Video
      File size : 23.8 GiB
      Duration : 2 h 23 min
      Overall bit rate mode : Variable
      Overall bit rate : 23.8 Mb/s
      Maximum Overall bit rate : 48.0 Mb/s
   Video #4113
      ID : 4113 (0x1011)
      Menu ID : 1 (0x1)
      Format : MPEG Video
      Format version : Version 2
      Format profile : Main@High
      Format settings : CustomMatrix / BVOP
      Format settings, BVOP : Yes
      Format settings, Matrix : Custom
      Format settings, GOP : M=3, N=13
      Format settings, picture structure : Frame
      Codec ID : 2
      Duration : 2 h 23 min
      Bit rate mode : Constant
      Bit rate : 21.3 Mb/s
      Maximum bit rate : 21.0 Mb/s
      Width : 1 920 pixels
      Height : 1 080 pixels
      Display aspect ratio : 16:9
      Frame rate : 29.970 (30000/1001) FPS
      Standard : Component
      Color space : YUV
      Chroma subsampling : 4:2:0
      Bit depth : 8 bits
      Scan type : Interlaced
      Scan order : Top Field First
      Compression mode : Lossy
      Bits/(Pixel*Frame) : 0.343
      Time code of first frame : 00:00:00:00
      Time code source : Group of pictures header
      GOP, Open/Closed : Closed
      Stream size : 21.3 GiB (90%)
      Writing library : TMPGEnc Video Mastering Works 5 Version. 5.0.6.38
      Color primaries : BT.709
      Transfer characteristics : BT.709
      Matrix coefficients : BT.709
   Audio #4352
      ID : 4352 (0x1100)
      Menu ID : 1 (0x1)
      Format : PCM
      Format settings : Big / Signed
      Muxing mode : Blu-ray
      Codec ID : 128
      Duration : 2 h 23 min
      Bit rate mode : Constant
      Bit rate : 1 536 kb/s
      Channel(s) : 2 channels
      Channel positions : Front: L R
      Sampling rate : 48.0 kHz
      Bit depth : 16 bits
      Stream size : 1.53 GiB (6%)

Blu-ray & DVD Cover Included
links Download From AusFile
DVD
Metallica_2019_Tulsa_DVD.part1.rar - 2.0 GB
Metallica_2019_Tulsa_DVD.part2.rar - 2.0 GB
Metallica_2019_Tulsa_DVD.part3.rar - 2.0 GB
Metallica_2019_Tulsa_DVD.part4.rar - 1.4 GB

Blu-ray
Metallica_2019_Tulsa_BD.part01.rar - 2.0 GB
Metallica_2019_Tulsa_BD.part02.rar - 2.0 GB
Metallica_2019_Tulsa_BD.part03.rar - 2.0 GB
Metallica_2019_Tulsa_BD.part04.rar - 2.0 GB
Metallica_2019_Tulsa_BD.part05.rar - 2.0 GB
Metallica_2019_Tulsa_BD.part06.rar - 2.0 GB
Metallica_2019_Tulsa_BD.part07.rar - 2.0 GB
Metallica_2019_Tulsa_BD.part08.rar - 2.0 GB
Metallica_2019_Tulsa_BD.part09.rar - 2.0 GB
Metallica_2019_Tulsa_BD.part10.rar - 2.0 GB
Metallica_2019_Tulsa_BD.part11.rar - 2.0 GB
Metallica_2019_Tulsa_BD.part12.rar - 477.2 MB

2019-02-01

BABYMETAL - 2018 - Download Festival - HD-Webcast > DVD


Thanks To Keith For File Produce The DVD
DVD Authoring & DVD Cover By Deer 5001

*****/*****

BABYMETAL - 2018 - Download Festival


Setlist:

01 - Distortion - Download Festival 2018
02 - Megitsune & Distortion - Download Festival 2018
03 - MEGITSUNE - Download Festival - 2018
04 - Road Of Resistance - Download Festival - 2018

Bonus

05 - Do-Ki-Do-Ki-MORNING - Music Clip
06 - Ii ne! - Music Clip
07 - Headbanger!! - Music Clip
08 - Ijime, Dame, Zettai - Music Clip
09 - Megitsune - Music Clip
10 - SU-META - Live Music Clip
11 - DEATH - Live From Summer Sonic 2013
12 - Megitsune - Live From Summer Sonic 2013
13 - Catch me if you can - Live From Summer Sonic 2013
14 - Headbanger!! - Live From Summer Sonic 2013
15 - Ijime, Dame, Zettai - Live From Summer Sonic 2013
16 - Starlight
17 - Love Machine (MOAMETAL)

Total Time: 01:27:59

DVD Info
Menu: Yes
Chapters (SongSelect): Yes
SoundMenu: Yes
DVD Produce From HD: Yes (Excellence Video & Audio)
Video: NTSC/16:9 Widescreen
Audio1: AC3/448 Kbps/5.1 Ch

DVD Cover Included
links Downlaod From AusFile
BABYMETAL_2018_DownlaodFestival.part1.rar - 1.2 GB
BABYMETAL_2018_DownlaodFestival.part2.rar - 1.2 GB
BABYMETAL_2018_DownlaodFestival.part3.rar - 1.2 GB
BABYMETAL_2018_DownlaodFestival.part4.rar - 797.4 MB


John Mayer &Keith Urban - 2010 - CMT Crossroads - HDTV > Blu-ray & DVD



Thanks To Original Uploader For File Produce The DVD & Blu-ray
Blu-ray, DVD Authoring & Blu-ray, DVD Cover By Deer 5001

*****/*****

John Mayer
& Keith Urban
CMT Crossroads
2010

Setlist:

01 - Intro
02 - Sweet Thing
03 - Interview 1
04 - Perfectly Lonely
05 - Interview 2
06 - 'Til Summer Comes Around
07 - Interview 3
08 - Gravity
09 - Interview 4
10 - If Ever I Could Love
11 - Interview 5
12 - Faith

Total Time: 00:41:30

DVD Info:
Menu: Yes
Chapters (SongSelect): Yes
SoundMenu: Yes
AudioSetup: Yes
DVD Produce From HD: Yes (Excellence Video & Audio)
Video: NTSC/16:9 Widescreen
Audio1: AC3/448 Kbps/5.1 Ch
Audio2: AC3/448 Kbps/2 Ch
Audio3: LPCM/1536 Kbps/2 Ch

Blu-ray Info:
Menu: Yes
Chapters (SongSelect): Yes
SoundMenu: Yes
DVD Produce From HD: Yes (Excellence Video & Audio)
Video: MPEG2 Video 1280x720 59.94fps 25000kbps
Audio: PCM 48000Hz stereo 1536kbps

Blu-ray & DVD Cover Included
links Download From AusFile
DVD
John_Keith_2010_CMT_DVD.part1.rar - 1.2 GB
John_Keith_2010_CMT_DVD.part2.rar - 1.2 GB
John_Keith_2010_CMT_DVD.part3.rar - 657.7 MB

Blu-ray
John_Keith_2010_CMT_BD.part1.rar - 1.2 GB
John_Keith_2010_CMT_BD.part2.rar - 1.2 GB
John_Keith_2010_CMT_BD.part3.rar - 1.2 GB
John_Keith_2010_CMT_BD.part4.rar - 1.2 GB
John_Keith_2010_CMT_BD.part5.rar - 1.2 GB
John_Keith_2010_CMT_BD.part6.rar - 1.2 GB
John_Keith_2010_CMT_BD.part7.rar - 1.2 GB
John_Keith_2010_CMT_BD.part8.rar - 308.1 MB

Joe Walsh - 2017-05-06 - Live at Amalie Arena, Tampa, Florida - HD-aud > Blu-ray & DVD



Thanks To "datflys" From YouTube For File Produce Blu-ray & DVD
Blu-ray, DVD Authoring & Blu-ray, DVD Cover By Deer 5001

*****/*****

Joe Walsh
Live at Amalie Arena
Tampa, Florida
2017-05-06


Setlist:

01 - Meadows
02 - Ordinary Average Guy
03 - Mother Says
04 - The Bomber
05 - Take It To The Limit
06 - Rocky Mountain Way

Total Time: 00:30:52

Joe Walsh - Guitar & Vocals
Joe Vitale - Drummer #1
Chad Cromwell - Drummer #2 - Guitar
Larry Young - Bass
Clayton Jones - Keyboards #1
Jimmy Wallace - Keyboards #2

Back Up Singer - Leslie Fuller
Back Up Singer - Lois Mahalia
Back Up Singer - Windy Wagner
Back Up Singer - Rickey Washington

DVD Info:
Menu: Yes
Chapters (SongSelect): Yes
SoundMenu: Yes
AudioSetup: Yes
DVD Produce From HD: Yes (Excellence Video & Audio)
Video: NTSC/16:9 Widescreen
Audio1: AC3/448 Kbps/5.1 Ch
Audio2: AC3/448 Kbps/2 Ch
Audio3: LPCM/1536 Kbps/2 Ch

Blu-ray Info:
Menu: Yes
Chapters (SongSelect): Yes
SoundMenu: Yes
DVD Produce From HD: Yes (Excellence Video & Audio)
Video: MPEG2 Video 1920x1080 29.97fps 25000kbps
Audio: PCM 48000Hz stereo 1536kbps

Blu-ray & DVD Cover  Included
links Download From AusFile
DVD
JoeWalsh_2017_Tampa_DVD.part1.rar - 1.2 GB
JoeWalsh_2017_Tampa_DVD.part2.rar - 1.0 GB
Blu-ray
JoeWalsh_2017_Tampa_BD.part1.rar - 1.2 GB
JoeWalsh_2017_Tampa_BD.part2.rar - 1.2 GB
JoeWalsh_2017_Tampa_BD.part3.rar - 1.2 GB
JoeWalsh_2017_Tampa_BD.part4.rar - 1.2 GB
JoeWalsh_2017_Tampa_BD.part5.rar - 1.2 GB
JoeWalsh_2017_Tampa_BD.part6.rar - 445.2 MB